Wednesday, 2 December 2015

PURSON - "In the Mean Time" 2015 XDR Remaster

2015 XDR Remaster by Eddy Lite for
hoerejong MultiMedia Design,
Hipper Than Hell Records



1 Death's Kiss  [2:41]
2 Dance Macabre  [4:00]
3 Wanted Man  [6:35]
4 I Will Be Good [5:30]


This particular release by one of my most favorite musical acts of last years was seriously 'damaged' soundwise. Though not as heavily squashed as the most notorious "Brickwall" releases that are quite common to find these days but this original master just didn't do the music justice.The first song sounds already much fucked up due to heavy clipping and some compression that it has the opposite effect of what the band wanted to capture in the studio. It should breathe and be gentle, it has become one hell of a stressy loungy and a rumbly friday night on the official CD. The reason for me to redo these. Hope you like these. You can now safely TURN ME UP!


Technical:
Source:
Original 2014 CD:

Dynamic Range Datasheet:
----------------------------------------------------------------------------------------------
 Analyzed folder: C:\Users\Eddy\Desktop\PURSON - 2014 - In The Mean Time EP\
----------------------------------------------------------------------------------------------
 DR       Peak         RMS        Filename
----------------------------------------------------------------------------------------------

 DR6   -0.10 dB   -7.41 dB  01. Death's Kiss.wav
 DR5   -0.10 dB   -5.74 dB  02. Danse Macabre.wav
 DR5   -0.10 dB   -6.57 dB  03. Wanted Man.wav
 DR5   -0.10 dB   -6.61 dB  04. I Will Be Good.wav
----------------------------------------------------------------------------------------------

 Number of files:    4
 Official DR value:  DR5

==============================================================================================


Dynamic Range Sheet (this version):
----------------------------------------------------------------------------------------------
 Analyzed folder: C:\Users\Eddy\Documents\PURSON - 2014 - In the Meantime
(32bit Relife Remaster 2015)\
----------------------------------------------------------------------------------------------
 DR       Peak         RMS        Filename
----------------------------------------------------------------------------------------------

 DR8   -2.44 dB  -12.20 dB  01. Death's Kiss.wav
 DR7   -2.12 dB  -10.53 dB  02. Danse Macabre.wav
 DR7   -2.56 dB  -11.19 dB  03. Wanted Man.wav
 DR8   -1.55 dB  -11.34 dB  04. I Will Be Good.wav
----------------------------------------------------------------------------------------------

 Number of files:    4
 Official DR value:  DR7

==============================================================================================



This ain't piracy, this is rebellion.
For promotional purposes only.
Don't steal, do share.

(c)2014 PURSON
(p)2015 Hipper Than Hell Records

www.purson.co.uk
eddylite.blogspot.com
www.dynamicrange.de
www.turnmeup.org

4 comments:

  1. hi, this is seem interesting. how can i download the remastered version? thanks for the good work :)

    ReplyDelete
  2. You're welcome. But I have to disappoint you a bit or 300 Mega to be exact. You can't download. That, sir, could get me in a lot of trouble now wouldn't it. (;D) *thumbsup*

    ReplyDelete
  3. The problem for me is that although I have nothing but the best intentions for the artists and music in general, I am being watched and don't want to get in trouble too much. I risk as much as I can. Do know that when I see a healthy way for all to share MY WORK, I will do so. In the Mean Time enjoy what is out there now please. Cheers!

    ReplyDelete